©  Domov ©  Hľadanie ©  Registrovať ©  Reklama ©  BanList ©  Kontakt ©    

Máme 778748 Používateľov a 564403 Príspevkov
 
17 Nov 2018, 05:10
Reklama : 1 | 0
srand(); $reklama = rand (5,7); srand();



Nevěrná / Unfaithful (2002)

  • Strana:
  • 1
Nevěrná / Unfaithful (2002)  (Prečítané 5208 krát)
Autor Príspevok

*


Cucaj Rank : 15
karma +40/-0
Príspevkov : 2077
Referal body : 0
SMS Body : 0

Zobraziť profil
#0

| 02 Jan 2009, 09:00

Nevěrná / Unfaithful (2002)

Info:
Ako hosť nemáte oprávnenie prezerať obsah na stiahnutie.
Registrujte sa alebo sa prihláste

Parametry:
 
Typ: DVDrip
Formát: AVI
Kodek: XviD 
Velikost: 1,36 GB
Rozlišení: 640x336
Trvání: 01:58:33 hodin
Země původu: USA / Německo
Žánr: Drama / Thriller  
Jazyk: CZ


Download:
Kód:
Ako hosť nemáte oprávnenie prezerať obsah na stiahnutie.
Registujte sa alebo sa  prihláste
Registraciou ziskate zadarmo pristup k odkazom na rapidshare, upnito, hellshare a desiatky dalsim.
Posledná zmena: 05 Jan 2009, 09:40 od wwallace

Pošli priateľom na FaceBooku
Linka:  

*


Cucaj Rank : 82
karma +48/-0
Príspevkov : 683
Referal body : 0
SMS Body : 0

Zobraziť profil
#1

| 05 Feb 2009, 06:45

Neverná
Unfaithful (2002) SK+CZ


Drama / Thriller
USA / Německo, 2002, 124 min

Režie: Adrian Lyne
Hrají: Diane Lane, Richard Gere, Olivier Martinez, Erik Per Sullivan, Chad Lowe, Dominic Chianese, Michelle Monaghan, Gary Basaraba, Margaret Colin, Željko Ivanek, Anne Pitoniak, Michael Emerson


Obsah:

Pohledná plavovláska Connie (Diane Lane) žije se svým manželem a osmiletým synem v rodinném domku poblíž New Yorku. Při cestě do města se náhodou seznámí se sympatickým Paulem, který ji zavede do svého bytu plného starodávných knih. Při prvním setkání k ničemu nedojde, žena však na bohémsky vyhlížejícího mladíka nepřestává myslet. Vyhledá ho znovu a stanou se milenci. Sexuální experiment přeroste ve vášnivý erotický vztah, který se časem prozradí. Oklamaný manžel (Richard Gere) nechá Connie sledovat, získá důkazy v podobě kompromitujících fotek a svého soka navštíví. V návalu vzteku Paula zabije a podaří se mu odklidit jeho mrtvolu. Connie však brzy odhalí pravdu...

Psychothriller s erotickou zápletkou vznikl jako remake Chabrolova snímku NEVĚRNÁ ŽENA (1969), v němž ústřední pár hráli Stéphane Audranová a Michel Bouquet. Režisér Adrian Lyne znovu dokázal svou schopnost atraktivního aranžmá - patrnou zejména ve vzrušujících milostných scénách. Pikantní příběh o jedné "nebezpečné známosti" má pozoruhodnou drobnokresbu: sondu do ženské psychiky kombinuje s výpovědí o životě středostavovských Američanů. Pohrává si s rekvizitami (vražedná zbraň) i s atmosférou houstnoucí vášně a vzrůstajícího podezření. Přerůstá v drama o vině a svědomí s otevřenou pointou...

Ako hosť nemáte oprávnenie prezerať obsah na stiahnutie.
Registrujte sa alebo sa prihláste

Kód:
Ako hosť nemáte oprávnenie prezerať obsah na stiahnutie.
Registujte sa alebo sa  prihláste
Registraciou ziskate zadarmo pristup k odkazom na rapidshare, upnito, hellshare a desiatky dalsim.
Kód:
Ako hosť nemáte oprávnenie prezerať obsah na stiahnutie.
Registujte sa alebo sa  prihláste
Registraciou ziskate zadarmo pristup k odkazom na rapidshare, upnito, hellshare a desiatky dalsim.

Veľkosť súboru : 1,29 GB
Trvanie : 01:58:34

[Video]
Rozlíšenie : 720x384
Kodek : DivX (4 / 5 / 6)
FPS : 25,00
BitRate : 1302 Kbps
Quality Factor : 0,19 b/px

[SK Audio]
Kodek : MPEG 1 or 2 Audio Layer 3 (MP3)
Počet kanálov : 2
Sample Rate : 48000 Hz
BitRate : 128 Kbps

[CZ Audio]
Kodek : MPEG 1 or 2 Audio Layer 3 (MP3)
Počet kanálov : 2
Sample Rate : 48000 Hz
BitRate : 128 Kbps

Dnom 24.7.2009 som sa rozhodol skoncit s tymto forom. Uzivajte si to tu dalej bezo mna v stasti a zdravi.

Pošli priateľom na FaceBooku
Linka:  

*


Cucaj Rank : 52
karma +515/-3
Príspevkov : 525
Referal body : 7
SMS Body : 10

Zobraziť profil


#2

| 05 Mar 2010, 14:20

Neverna / Unfaithful (2002)

{alt}

INFO:
Drama / Thriller
USA / Německo, 2002, 124 min
Jazyk: CZ dabing

Režie: Adrian Lyne
Hrají: Diane Lane, Richard Gere, Olivier Martinez, Erik Per Sullivan, Chad Lowe, Dominic Chianese, Michelle Monaghan, Gary Basaraba, Margaret Colin, Željko Ivanek, Anne Pitoniak, Michael Emerson

CSFD: 64%
Ako hosť nemáte oprávnenie prezerať obsah na stiahnutie.
Registrujte sa alebo sa prihláste

DOWNLOAD:
Kód:
Ako hosť nemáte oprávnenie prezerať obsah na stiahnutie.
Registujte sa alebo sa  prihláste
Registraciou ziskate zadarmo pristup k odkazom na rapidshare, upnito, hellshare a desiatky dalsim.

BEZ HESLA
Posledná zmena: 05 Mar 2010, 14:55 od R.I.P.

Pošli priateľom na FaceBooku
Linka:  

*


Cucaj Rank : n/a
karma +0/-0
Príspevkov : 27
Referal body : 0
SMS Body : 0

Zobraziť profil
#3

| 04 J?l 2018, 14:11

Nevěrná / Unfaithful (2002)
Video/Zdroj: DVDRip
Audio: CZ



Kód:
Ako hosť nemáte oprávnenie prezerať obsah na stiahnutie.
Registujte sa alebo sa  prihláste
Registraciou ziskate zadarmo pristup k odkazom na rapidshare, upnito, hellshare a desiatky dalsim.

Citácia
Format                                   : AVI
Format/Info                              : Audio Video Interleave
File size                                : 1.37 GiB
Duration                                 : 1h 58mn
Overall bit rate                         : 1 651 Kbps

Video
Format                                   : MPEG-4 Visual
Format profile                           : Advanced Simple@L5
Format settings, BVOP                    : 2
Format settings, Matrix                  : Default (H.263)
Muxing mode                              : Packed bitstream
Codec ID/Hint                            : XviD
Duration                                 : 1h 58mn
Bit rate                                 : 1 449 Kbps
Width                                    : 640 pixels
Height                                   : 336 pixels
Display aspect ratio                     : 1.905
Frame rate                               : 25.000 fps
Color space                              : YUV
Chroma subsampling                       : 4:2:0
Bit depth                                : 8 bits
Scan type                                : Progressive
Compression mode                         : Lossy
Bits/(Pixel*Frame)                       : 0.270
Stream size                              : 1.20 GiB (88%)

Audio
ID                                       : 1
Format                                   : AC-3
Format/Info                              : Audio Coding 3
Format profile                           : Dolby Digital
Mode extension                           : CM (complete main)
Format settings, Endianness              : Big
Codec ID                                 : 2000
Duration                                 : 1h 58mn
Bit rate mode                            : Constant
Bit rate                                 : 192 Kbps
Channel count                            : 2 channels
Channel positions                        : Front: L R
Sampling rate                            : 48.0 KHz
Bit depth                                : 16 bits
Compression mode                         : Lossy
Stream size                              : 163 MiB (12%)
Alignment                                : Split accross interleaves
Interleave, duration                     : 40 ms (1.00 video frame)
Interleave, preload duration             : 500 ms

Fastshare
Kód:
Ako hosť nemáte oprávnenie prezerať obsah na stiahnutie.
Registujte sa alebo sa  prihláste
Registraciou ziskate zadarmo pristup k odkazom na rapidshare, upnito, hellshare a desiatky dalsim.

Pošli priateľom na FaceBooku
Linka:  
  • Strana:
  • 1

Nevěrná / Unfaithful (2002)

V sekcii najdete linky na rapidshare, upnito, hellshare zadarmo

Skočiť na:  
Téma od Na vrch

Stránka vytvorená za 0.063 sekund, 24 otázok.
Cucaj.sk© | Poháňané SMF 1.1.11.
© 2005-2009, Simple Machines LLC. Všetky práva vyhradené.
Upozornenie: žiadny zo zobrazovaných súborov sa nenachádza na tomto serveri.
Autor stránky neberie žiadnu zodpovednosť za príspevky odoslané uživateľmi. Nepoužívajte
tieto stránky k distribúcii alebo k downloadu akýchkoľvek materiálov, ku ktorým nemáte
legálne opravnenie alebo licenciu. Všetky príspevky sem vkladáte na vlastnú zodpovednosť
Autor stránky odmieta akúkoľvek zodpovednosť za prípadne porušovanie zákonov.
Kopírovanie obsahu bez písomného súhlasu autora stránky je trestné.