©  Domov ©  Hľadanie ©  Registrovať ©  Reklama ©  BanList ©  Kontakt ©    

Máme 778578 Používateľov a 563569 Príspevkov
 
21 Sep 2018, 18:31 pm
Reklama : 1 | 0
Stieracia mapa Slovenska XL - Darček na Vianoce srand(); $reklama = rand (5,7); srand();



L. A. - Přísně tajné / L. A. Confidential (1997)

  • Strana:
  • 1
L. A. - Přísně tajné / L. A. Confidential (1997)  (Prečítané 836 krát)
Autor Príspevok

*


Cucaj Rank : n/a
karma +0/-0
Príspevkov : 12
Referal body : 0
SMS Body : 0

Zobraziť profil
#0

| 06 Júl 2018, 13:15 pm

L. A. - Přísně tajné / L. A. Confidential (1997)
Video/Zdroj: DVDRip
Audio: CZ



Kód:
Ako hosť nemáte oprávnenie prezerať obsah na stiahnutie.
Registujte sa alebo sa  prihláste
Registraciou ziskate zadarmo pristup k odkazom na rapidshare, upnito, hellshare a desiatky dalsim.

Citácia
Format                                   : AVI
Format/Info                              : Audio Video Interleave
File size                                : 1.14 GiB
Duration                                 : 2h 12mn
Overall bit rate                         : 1 235 Kbps

Video

Format                                   : MPEG-4 Visual
Format settings, BVOP                    : 1
Format settings, Matrix                  : Default (H.263)
Muxing mode                              : Packed bitstream
Codec ID/Hint                            : DivX 5
Duration                                 : 2h 12mn
Bit rate                                 : 1 003 Kbps
Width                                    : 720 pixels
Height                                   : 288 pixels
Display aspect ratio                     : 2.500
Frame rate                               : 25.000 fps
Color space                              : YUV
Chroma subsampling                       : 4:2:0
Bit depth                                : 8 bits
Scan type                                : Progressive
Compression mode                         : Lossy
Bits/(Pixel*Frame)                       : 0.194
Stream size                              : 949 MiB (81%)

Audio
Format                                   : AC-3
Format/Info                              : Audio Coding 3
Mode extension                           : CM (complete main)
Format settings, Endianness              : Big
Codec ID                                 : 2000
Duration                                 : 2h 12mn
Bit rate mode                            : Constant
Bit rate                                 : 224 Kbps
Channel(s)                               : 2 channels
Channel positions                        : Front: L R
Sampling rate                            : 48.0 KHz
Bit depth                                : 16 bits
Compression mode                         : Lossy
Delay relative to video                  : 16ms
Stream size                              : 212 MiB (18%)
Alignment                                : Split accross interleaves
Interleave, duration                     : 80 ms (2.00 video frames)
Interleave, preload duration             : 500 ms

Fastshare
Kód:
Ako hosť nemáte oprávnenie prezerať obsah na stiahnutie.
Registujte sa alebo sa  prihláste
Registraciou ziskate zadarmo pristup k odkazom na rapidshare, upnito, hellshare a desiatky dalsim.

Pošli priateľom na FaceBooku
Linka:  
  • Strana:
  • 1

L. A. - Přísně tajné / L. A. Confidential (1997)

V sekcii najdete linky na rapidshare, upnito, hellshare zadarmo

Skočiť na:  
Téma od Na vrch

Stránka vytvorená za 0.064 sekund, 21 otázok.
Cucaj.sk© | Poháňané SMF 1.1.11.
© 2005-2009, Simple Machines LLC. Všetky práva vyhradené.
Upozornenie: žiadny zo zobrazovaných súborov sa nenachádza na tomto serveri.
Autor stránky neberie žiadnu zodpovednosť za príspevky odoslané uživateľmi. Nepoužívajte
tieto stránky k distribúcii alebo k downloadu akýchkoľvek materiálov, ku ktorým nemáte
legálne opravnenie alebo licenciu. Všetky príspevky sem vkladáte na vlastnú zodpovednosť
Autor stránky odmieta akúkoľvek zodpovednosť za prípadne porušovanie zákonov.
Kopírovanie obsahu bez písomného súhlasu autora stránky je trestné.