©  Domov ©  Hľadanie ©  Registrovať ©  Reklama ©  BanList ©  Kontakt ©    

Máme 778471 Používateľov a 562762 Príspevkov
 
17 Aug 2018, 10:16 am
Reklama : 1 | 0
Stieracia mapa Slovenska XL - Darček na Vianoce srand(); $reklama = rand (5,7); srand();



Grand Tour, The (2016-2017)

  • Strana:
  • 1
Grand Tour, The (2016-2017)  (Prečítané 1026 krát)
Autor Príspevok

*


Cucaj Rank : 38
karma +102/-1
Príspevkov : 1287
Referal body : 2
SMS Body : 0

Zobraziť profil


#0

| 28 Jan 2018, 22:27 pm



The Grand Tour (TV pořad)   (2016-2017) EN + CZ Tiluky

Kód:
Ako hosť nemáte oprávnenie prezerať obsah na stiahnutie.
Registujte sa alebo sa  prihláste
Registraciou ziskate zadarmo pristup k odkazom na rapidshare, upnito, hellshare a desiatky dalsim.


Oblíbené trio je zpět. Jeremy Clarkson, Richard Hammond a James May se vrací v novém seriálu The Grand Tour, který je nepřímým pokračováním jejich posledního působení v Top Gearu. Naše trojka se vydává na cestu po celém světě, kde testuje různá auta, plní úkoly a především si užívají život jako "motoristi ve středním věku", kdy každou epizodu uvádí v jejich mobilním stanu.

JAZYK| En
TITULKY| En / Cz

VIDEO| MPEG4 Video (H264) 1280x720 23.976fps

AUDIO| DD+ 48000Hz 6ch 640kbps

ROK| 2016-2017
DÉLKA| 13x ~60min
ŽÁNR| Dokumentární / Sportovní

2 Séria:
Complete name: The.Grand.Tour.S02E02.720p.WEB.h264-SKGTV.mkv
Epizódy:

1. Past, Present or Future (Past, Present or Future)
2. The Falls Guys (The Falls Guys)
3. Bah humbug-atti (Bah humbug-atti)
4. Unscripted (Unscripted)
5. Up, Down and Round the Farm (Up, Down and Round the Farm)
6. Jaaaaaaaags (Jaaaaaaaags)
7. It's a Gas, Gas, Gas (It's a Gas, Gas, Gas)
8. Blasts from the Past (Blasts from the Past)
9. Breaking, badly (Breaking, badly) - tento diel este dodam zajtra by sa mala odvisielat Úsmev

Info:
General
Complete name: The.Grand.Tour.S02E02.720p.WEB.h264-SKGTV.mkv
Format: Matroska
Format version: Version 4 / Version 2
File size: 2.34 GiB
Duration: 1h 10mn
Overall bit rate mode: Variable
Overall bit rate: 4 781 Kbps
Encoded date: UTC 2017-12-14 23:02:16
Writing application: mkvmerge v11.0.0 ( 'Alive' ) 64bit
Writing library: libebml v1.3.4 + libmatroska v1.4.5
DURATION: 01:08:40.320000000
NUMBER_OF_FRAMES: 1391
NUMBER_OF_BYTES: 50895
_STATISTICS_WRITING_APP: mkvmerge v11.0.0 ( 'Alive' ) 64bit
_STATISTICS_WRITING_DATE_UTC: 2017-12-14 23:02:16
_STATISTICS_TAGS: BPS DURATION NUMBER_OF_FRAMES NUMBER_OF_BYTES

Video
ID: 1
Format: AVC
Format/Info: Advanced Video Codec
Format profile: High@L3.1
Format settings, CABAC: Yes
Format settings, ReFrames: 5 frames
Codec ID: V_MPEG4/ISO/AVC
Duration: 1h 10mn
Bit rate mode: Variable
Bit rate: 4 045 Kbps
Maximum bit rate: 4 500 Kbps
Width: 1 280 pixels
Height: 720 pixels
Display aspect ratio: 16:9
Frame rate mode: Constant
Frame rate: 25.000 fps
Color space: YUV
Chroma subsampling: 4:2:0
Bit depth: 8 bits
Scan type: Progressive
Bits/(Pixel*Frame): 0.176
Stream size: 1.98 GiB (85%)
Default: Yes
Forced: No
Color range: Limited
Color primaries: BT.709
Transfer characteristics: BT.709
Matrix coefficients: BT.709

Audio
ID: 2
Format: E-AC-3
Format/Info: Audio Coding 3
Format settings, Endianness: Big
Codec ID: A_EAC3
Duration: 1h 10mn
Bit rate mode: Constant
Bit rate: 640 Kbps
Channel(s): 6 channels
Channel positions: Front: L C R, Side: L R, LFE
Sampling rate: 48.0 KHz
Compression mode: Lossy
Stream size: 321 MiB (13%)
Default: Yes
Forced: No

Text
ID: 3
Format: UTF-8
Codec ID: S_TEXT/UTF8
Codec ID/Info: UTF-8 Plain Text
Title                          : English [CC]
Default: No
Forced: No

Download:
Kód:
Ako hosť nemáte oprávnenie prezerať obsah na stiahnutie.
Registujte sa alebo sa  prihláste
Registraciou ziskate zadarmo pristup k odkazom na rapidshare, upnito, hellshare a desiatky dalsim.
Posledná zmena: 11 Feb 2018, 12:33 pm od BrOnX

Pošli priateľom na FaceBooku
Linka:  
  • Strana:
  • 1

Grand Tour, The (2016-2017)

V sekcii najdete linky na rapidshare, upnito, hellshare zadarmo

Skočiť na:  
Téma od Na vrch

Stránka vytvorená za 0.066 sekund, 20 otázok.
Cucaj.sk© | Poháňané SMF 1.1.11.
© 2005-2009, Simple Machines LLC. Všetky práva vyhradené.
Upozornenie: žiadny zo zobrazovaných súborov sa nenachádza na tomto serveri.
Autor stránky neberie žiadnu zodpovednosť za príspevky odoslané uživateľmi. Nepoužívajte
tieto stránky k distribúcii alebo k downloadu akýchkoľvek materiálov, ku ktorým nemáte
legálne opravnenie alebo licenciu. Všetky príspevky sem vkladáte na vlastnú zodpovednosť
Autor stránky odmieta akúkoľvek zodpovednosť za prípadne porušovanie zákonov.
Kopírovanie obsahu bez písomného súhlasu autora stránky je trestné.