©  Domov ©  Hľadanie ©  Registrovať ©  Reklama ©  BanList ©  Kontakt ©    

Máme 778089 Používateľov a 560486 Príspevkov
 
22 Apr 2018, 22:50 pm
Reklama : 1 | 0
Stieracia mapa Slovenska XL - Darček na Vianoce srand(); $reklama = rand (5,7); srand();



Jigsaw (2017)

  • Strana:
  • 1
Jigsaw (2017)  (Prečítané 1017 krát)
Autor Príspevok

*


Cucaj Rank : 570
karma +0/-1
Príspevkov : 38
Referal body : 0
SMS Body : 0

Zobraziť profil


#0

| 09 Jan 2018, 09:20 am

JIGSAW (2017)
Jigsaw.2017.1080p.WEB-DL.DD5.1.H264-FGT
Jazyk: 1.ENG
Titulky: 1.ENG



Kód:
Ako hosť nemáte oprávnenie prezerať obsah na stiahnutie.
Registujte sa alebo sa  prihláste
Registraciou ziskate zadarmo pristup k odkazom na rapidshare, upnito, hellshare a desiatky dalsim.

INFO:
Kód:
Ako hosť nemáte oprávnenie prezerať obsah na stiahnutie.
Registujte sa alebo sa  prihláste
Registraciou ziskate zadarmo pristup k odkazom na rapidshare, upnito, hellshare a desiatky dalsim.

DOWNLOAD:
Ulož.to
Kód:
Ako hosť nemáte oprávnenie prezerať obsah na stiahnutie.
Registujte sa alebo sa  prihláste
Registraciou ziskate zadarmo pristup k odkazom na rapidshare, upnito, hellshare a desiatky dalsim.

WebShare
Kód:
Ako hosť nemáte oprávnenie prezerať obsah na stiahnutie.
Registujte sa alebo sa  prihláste
Registraciou ziskate zadarmo pristup k odkazom na rapidshare, upnito, hellshare a desiatky dalsim.


Pošli priateľom na FaceBooku
Linka:  

*


Cucaj Rank : n/a
karma +0/-0
Príspevkov : 0
Referal body : 0
SMS Body : 0

Zobraziť profil


#1

| 09 Jan 2018, 17:43 pm

Jigsaw (2017)


{alt}

Size/Veľkosť: 3,20 GB
Resolution/Rozlíšenie: 1920 x 834
Audio: EN
Subtitles/Titulky: EN



[size=18]ČSFD: 66%[/size]
Kód:
Ako hosť nemáte oprávnenie prezerať obsah na stiahnutie.
Registujte sa alebo sa  prihláste
Registraciou ziskate zadarmo pristup k odkazom na rapidshare, upnito, hellshare a desiatky dalsim.

Kód:
Ako hosť nemáte oprávnenie prezerať obsah na stiahnutie.
Registujte sa alebo sa  prihláste
Registraciou ziskate zadarmo pristup k odkazom na rapidshare, upnito, hellshare a desiatky dalsim.

Pošli priateľom na FaceBooku
Linka:  

*


Cucaj Rank : 38
karma +102/-1
Príspevkov : 1289
Referal body : 2
SMS Body : 0

Zobraziť profil


#2

| 10 Jan 2018, 01:05 am

Jigsaw.2017.HDRip.XviD.AC3-EVO.avi
 


Cover:



Info:

Jazyk: Eng
Titulky: caka sa titulky.com
Csfd:
Kód:
Ako hosť nemáte oprávnenie prezerať obsah na stiahnutie.
Registujte sa alebo sa  prihláste
Registraciou ziskate zadarmo pristup k odkazom na rapidshare, upnito, hellshare a desiatky dalsim.
Info:
Complete name: Jigsaw.2017.HDRip.XviD.AC3-EVO.avi
Format: AVI
Format/Info: Audio Video Interleave
File size: 1.33 GiB
Duration: 1 h 31 min
Overall bit rate: 2 071 kb/s
Writing library: VirtualDub build 32593/release

Video
ID: 0
Format: MPEG-4 Visual
Format profile: Advanced Simple@L5
Format settings: BVOP2
Format settings, BVOP: 2
Format settings, QPel: No
Format settings, GMC: No warppoints
Format settings, Matrix: Default (H.263)
Muxing mode: Packed bitstream
Codec ID: XVID
Codec ID/Hint: XviD
Duration: 1 h 31 min
Bit rate: 1 677 kb/s
Width: 720 pixels
Height: 304 pixels
Display aspect ratio: 2.35:1
Frame rate: 23.976 (24000/1001) FPS
Color space: YUV
Chroma subsampling: 4:2:0
Bit depth: 8 bits
Scan type: Progressive
Compression mode: Lossy
Bits/(Pixel*Frame): 0.320
Stream size: 1.08 GiB (81%)
Writing library: XviD 66

Audio
ID: 1
Format: AC-3
Format/Info: Audio Coding 3
Codec ID: 2000
Duration: 1 h 31 min
Bit rate mode: Constant
Bit rate: 384 kb/s
Channel(s): 6 channels
Channel positions: Front: L C R, Side: L R, LFE
Sampling rate: 48.0 kHz
Frame rate: 31.250 FPS (1536 SPF)
Bit depth: 16 bits
Compression mode: Lossy
Stream size: 253 MiB (19%)
Alignment: Aligned on interleaves
Interleave, duration: 42  ms (1.00 video frame)
Interleave, preload duration: 512  ms
Service kind: Complete Main




Download:
Kód:
Ako hosť nemáte oprávnenie prezerať obsah na stiahnutie.
Registujte sa alebo sa  prihláste
Registraciou ziskate zadarmo pristup k odkazom na rapidshare, upnito, hellshare a desiatky dalsim.

Jigsaw 2017 1080p Web DL x264 AC3 TiTAN[EtHD].mkv
 


Info:
Jigsaw 2017 1080p Web DL x264 AC3 TiTAN[EtHD]\Jigsaw 2017 1080p Web DL x264 AC3 TiTAN[EtHD].mkv
Format: Matroska
Format version: Version 4 / Version 2
File size: 3.20 GiB
Duration: 1h 31mn
Overall bit rate: 4 980 Kbps
Encoded date: UTC 2018-01-09 03:53:39
Writing application: mkvmerge v19.0.0 ('Brave Captain'Mrknutie 64-bit
Writing library: libebml v1.3.5 + libmatroska v1.4.8

Video
ID: 1
Format: AVC
Format/Info: Advanced Video Codec
Format profile: High@L4
Format settings, CABAC: Yes
Format settings, ReFrames: 5 frames
Codec ID: V_MPEG4/ISO/AVC
Duration: 1h 31mn
Bit rate: 4 594 Kbps
Width: 1 912 pixels
Height: 796 pixels
Display aspect ratio: 2.40:1
Frame rate mode: Constant
Frame rate: 23.976 (24000/1001) fps
Color space: YUV
Chroma subsampling: 4:2:0
Bit depth: 8 bits
Scan type: Progressive
Bits/(Pixel*Frame): 0.126
Stream size: 2.95 GiB (92%)
Language: English
Default: Yes
Forced: No
Color range: Limited
Color primaries: BT.709
Transfer characteristics: BT.709
Matrix coefficients: BT.709

Audio
ID: 2
Format: AC-3
Format/Info: Audio Coding 3
Mode extension: CM (complete main)
Format settings, Endianness: Big
Codec ID: A_AC3
Duration: 1h 31mn
Bit rate mode: Constant
Bit rate: 384 Kbps
Channel(s): 6 channels
Channel positions: Front: L C R, Side: L R, LFE
Sampling rate: 48.0 KHz
Frame rate: 31.250 fps (1536 spf)
Compression mode: Lossy
Delay relative to video: -42ms
Stream size: 253 MiB (8%)
Language: English
Default: Yes
Forced: No





Download:
Kód:
Ako hosť nemáte oprávnenie prezerať obsah na stiahnutie.
Registujte sa alebo sa  prihláste
Registraciou ziskate zadarmo pristup k odkazom na rapidshare, upnito, hellshare a desiatky dalsim.

Pošli priateľom na FaceBooku
Linka:  
  • Strana:
  • 1

Jigsaw (2017)

V sekcii najdete linky na rapidshare, upnito, hellshare zadarmo

Skočiť na:  
Téma od Na vrch

Stránka vytvorená za 0.345 sekund, 23 otázok.
Cucaj.sk© | Poháňané SMF 1.1.11.
© 2005-2009, Simple Machines LLC. Všetky práva vyhradené.
Upozornenie: žiadny zo zobrazovaných súborov sa nenachádza na tomto serveri.
Autor stránky neberie žiadnu zodpovednosť za príspevky odoslané uživateľmi. Nepoužívajte
tieto stránky k distribúcii alebo k downloadu akýchkoľvek materiálov, ku ktorým nemáte
legálne opravnenie alebo licenciu. Všetky príspevky sem vkladáte na vlastnú zodpovednosť
Autor stránky odmieta akúkoľvek zodpovednosť za prípadne porušovanie zákonov.
Kopírovanie obsahu bez písomného súhlasu autora stránky je trestné.