©  Domov ©  Hľadanie ©  Registrovať ©  Reklama ©  BanList ©  Kontakt ©    

Máme 778265 Používateľov a 561908 Príspevkov
 
19 Jún 2018, 18:47 pm
Reklama : 1 | 0
Stieracia mapa Slovenska XL - Darček na Vianoce srand(); $reklama = rand (5,7); srand();



Tři billboardy kousek za Ebbingem / Three Billboards (2017)

  • Strana:
  • 1
Tři billboardy kousek za Ebbingem / Three Billboards (2017)  (Prečítané 707 krát)
Autor Príspevok

*


Cucaj Rank : 38
karma +102/-1
Príspevkov : 1288
Referal body : 2
SMS Body : 0

Zobraziť profil


#0

| 06 Jan 2018, 23:36 pm

Three.Billboards.Outside.Ebbing,Missouri.2017.DVDScr.XVID.AC3.HQ.Hive-CM8.avi + CZ Titulky
 


Cover:



Info:

Jazyk: Eng
Titulky: Cze
Csfd:
Kód:
Ako hosť nemáte oprávnenie prezerať obsah na stiahnutie.
Registujte sa alebo sa  prihláste
Registraciou ziskate zadarmo pristup k odkazom na rapidshare, upnito, hellshare a desiatky dalsim.
Info:
Celý název a cesta: F:\Tři billboardy kousek za Ebbingem 2017\Three.Billboards.Outside.Ebbing,Missouri.2017.DVDScr.XVID.AC3.HQ.Hive-CM8.avi
Formát: AVI
Formát/Info: Audio Video Interleave
Velikost souboru: 1.52 GiB
Duration: 1h 55mn
Overall bit rate: 1 887 Kbps
Použitý software: Nandub v1.0rc2
Enkódoval: Nandub build 1853/release

Video
ID: 0
Formát: MPEG-4 Visual
Format profile: Advanced Simple@L5
Format settings, BVOP: 2
Format settings, QPel: Ano
Format settings, GMC: No warppoints
Format settings, Matrix: Default (H.263)
Muxing mode: Packed bitstream
Codec ID: XVID
Codec ID/Hint: XviD
Duration: 1h 55mn
Bit rate: 1 619 Kbps
Šířka: 720pixely
Výška: 304pixely
Display aspect ratio: 2.35:1
Frame rate: 29.970 fps
Color space: YUV
Chroma subsampling: 4:2:0
Bit depth: 8 bits
Scan type: Progressive
Compression mode: Lossy
Bits/(Pixel*Frame): 0.247
Stream size: 1.30 GiB (86%)
Enkódoval: XviD 1.2.1 (UTC 2008-12-04)

Audio
ID: 1
Formát: AC-3
Formát/Info: Audio Coding 3
Mode extension: CM (complete main)
Format settings, Endianness: Big
Codec ID: 2000
Duration: 1h 55mn
Bit rate mode: Constant
Bit rate: 256 Kbps
Kanál(y): 2 kanály
Channel positions: Front: L R
Sampling rate: 48.0 KHz
Bit depth: 16 bits
Compression mode: Lossy
Delay relative to video: 28ms
Stream size: 211 MiB (14%)
Alignment: Split accross interleaves
Interleave, duration: 33 ms (1.00 video frame)
Interleave, preload duration: 500 ms




Download:
Kód:
Ako hosť nemáte oprávnenie prezerať obsah na stiahnutie.
Registujte sa alebo sa  prihláste
Registraciou ziskate zadarmo pristup k odkazom na rapidshare, upnito, hellshare a desiatky dalsim.

Pošli priateľom na FaceBooku
Linka:  
  • Strana:
  • 1

Tři billboardy kousek za Ebbingem / Three Billboards (2017)

V sekcii najdete linky na rapidshare, upnito, hellshare zadarmo

Skočiť na:  
Téma od Na vrch

Stránka vytvorená za 0.059 sekund, 21 otázok.
Cucaj.sk© | Poháňané SMF 1.1.11.
© 2005-2009, Simple Machines LLC. Všetky práva vyhradené.
Upozornenie: žiadny zo zobrazovaných súborov sa nenachádza na tomto serveri.
Autor stránky neberie žiadnu zodpovednosť za príspevky odoslané uživateľmi. Nepoužívajte
tieto stránky k distribúcii alebo k downloadu akýchkoľvek materiálov, ku ktorým nemáte
legálne opravnenie alebo licenciu. Všetky príspevky sem vkladáte na vlastnú zodpovednosť
Autor stránky odmieta akúkoľvek zodpovednosť za prípadne porušovanie zákonov.
Kopírovanie obsahu bez písomného súhlasu autora stránky je trestné.