©  Domov ©  Hľadanie ©  Registrovať ©  Reklama ©  BanList ©  Kontakt ©    

Máme 778891 Používateľov a 568162 Príspevkov
 
13 Dec 2018, 19:32
Reklama : 1 | 0
srand(); $reklama = rand (5,7); srand();



Andel Pane (2005)

  • Strana:
  • 1
Andel Pane (2005)  (Prečítané 227 krát)
Autor Príspevok

*


Cucaj Rank : 38
karma +102/-1
Príspevkov : 1411
Referal body : 2
SMS Body : 0

Zobraziť profil


#0

| 23 Dec 2017, 00:16

andel.pane.hdtv.1080i.rambo.cz.mkv


 


Cover:



Info:

Země: ČR
Rok: 2005
Délka: 90 min
Jazyk: český (5.1)
Titulky: žádné
Zdroj: DVB HDTV (1080i)

Csfd:

Kód:
Ako hosť nemáte oprávnenie prezerať obsah na stiahnutie.
Registujte sa alebo sa  prihláste
Registraciou ziskate zadarmo pristup k odkazom na rapidshare, upnito, hellshare a desiatky dalsim.

Info:
General
Format: Matroska
File size: 6.61 GiB
Duration: 1h 31mn
Overall bit rate: 10.3 Mbps
Writing application: Lavf51.12.1
Writing library: Lavf51.12.1

Video
ID: 1
Format: AVC
Format/Info: Advanced Video Codec
Format profile: Baseline@L4.0
Format settings, CABAC: No
Format settings, ReFrames: 1 frame
Format settings, GOP: M=1, N=12
Codec ID: V_MPEG4/ISO/AVC
Duration: 1h 31mn
Bit rate: 9 695 Kbps
Width: 1 920 pixels
Height: 1 080 pixels
Display aspect ratio: 16:9
Frame rate: 25.000 fps
Color space: YUV
Chroma subsampling: 4:2:0
Bit depth: 8 bits
Scan type: Progressive
Bits/(Pixel*Frame): 0.187
Stream size: 6.19 GiB (94%)
Language: English

Audio
ID: 2
Format: AC-3
Format/Info: Audio Coding 3
Mode extension: CM (complete main)
Codec ID: A_AC3
Duration: 1h 31mn
Bit rate mode: Constant
Bit rate: 448 Kbps
Channel(s): 6 channels
Channel positions: Front: L C R, Side: L R, LFE
Sampling rate: 48.0 KHz
Bit depth: 16 bits
Compression mode: Lossy
Stream size: 293 MiB (4%)
Language: English / Czech




Download:
Kód:
Ako hosť nemáte oprávnenie prezerať obsah na stiahnutie.
Registujte sa alebo sa  prihláste
Registraciou ziskate zadarmo pristup k odkazom na rapidshare, upnito, hellshare a desiatky dalsim.

Pošli priateľom na FaceBooku
Linka:  
  • Strana:
  • 1

Andel Pane (2005)

V sekcii najdete linky na rapidshare, upnito, hellshare zadarmo

Skočiť na:  
Téma od Na vrch

Stránka vytvorená za 0.043 sekund, 21 otázok.
Cucaj.sk© | Poháňané SMF 1.1.11.
© 2005-2009, Simple Machines LLC. Všetky práva vyhradené.
Upozornenie: žiadny zo zobrazovaných súborov sa nenachádza na tomto serveri.
Autor stránky neberie žiadnu zodpovednosť za príspevky odoslané uživateľmi. Nepoužívajte
tieto stránky k distribúcii alebo k downloadu akýchkoľvek materiálov, ku ktorým nemáte
legálne opravnenie alebo licenciu. Všetky príspevky sem vkladáte na vlastnú zodpovednosť
Autor stránky odmieta akúkoľvek zodpovednosť za prípadne porušovanie zákonov.
Kopírovanie obsahu bez písomného súhlasu autora stránky je trestné.