©  Domov ©  Hľadanie ©  Registrovať ©  Reklama ©  BanList ©  Kontakt ©    

Máme 777602 Používateľov a 559265 Príspevkov
 
21 Jan 2018, 09:51 am
Reklama : 1 | 0
Stieracia mapa Slovenska XL - Darček na Vianoce srand(); $reklama = rand (5,7); srand();



To / It (2017)

  • Strana:
  • 1
To / It (2017)  (Prečítané 649 krát)
Autor Príspevok

*


Cucaj Rank : n/a
karma +0/-0
Príspevkov : 0
Referal body : 0
SMS Body : 0

Zobraziť profil


#0

| 10 Dec 2017, 20:33 pm

To / It / It: Part 1 - The Losers' Club (2017)

BEZ KOREJSKYCH TITULIEK




ČSFD: 77%
Kód:
Ako hosť nemáte oprávnenie prezerať obsah na stiahnutie.
Registujte sa alebo sa  prihláste
Registraciou ziskate zadarmo pristup k odkazom na rapidshare, upnito, hellshare a desiatky dalsim.


IT 2017.WEBRip.x264-SHITBOX
Size/Veľkosť: 1,1 GB
Resolution/Rozlíšenie: 720 x 400
Audio: EN
Subtitles/Titulky: CZ


Kód:
Ako hosť nemáte oprávnenie prezerať obsah na stiahnutie.
Registujte sa alebo sa  prihláste
Registraciou ziskate zadarmo pristup k odkazom na rapidshare, upnito, hellshare a desiatky dalsim.


IT 2017.1080p.WEBRip.x264.AAC2.0-SHITBOX
Size/Veľkosť: 4,32 GB
Resolution/Rozlíšenie: 1920 x 1080
Audio: EN
Subtitles/Titulky: CZ



Kód:
Ako hosť nemáte oprávnenie prezerať obsah na stiahnutie.
Registujte sa alebo sa  prihláste
Registraciou ziskate zadarmo pristup k odkazom na rapidshare, upnito, hellshare a desiatky dalsim.

Pošli priateľom na FaceBooku
Linka:  

*


Cucaj Rank : 38
karma +102/-1
Príspevkov : 1290
Referal body : 2
SMS Body : 0

Zobraziť profil


#1

| 12 Dec 2017, 12:41 pm

To + cz titulky
 


Cover:



Info:

AUDIO: 2.0 ENG
TITULKY: CZ / Korejské v obraze

Csfd:
Kód:
Ako hosť nemáte oprávnenie prezerať obsah na stiahnutie.
Registujte sa alebo sa  prihláste
Registraciou ziskate zadarmo pristup k odkazom na rapidshare, upnito, hellshare a desiatky dalsim.
Info:
IT.2017.KORSUB.HDRip.x264-STUTTERSHIT\IT.2017.KORSUB.HDRip.x264-STUTTERSHIT.mp4
Formát: MPEG-4
Format profile: Base Media
Codec ID: isom
Velikost souboru: 1.13 GiB
Duration: 2h 12mn
Overall bit rate: 1 228 Kbps
Název filmu: IT.2017.KORSUB.HDRip.x264-STUTTERSHIT
Použitý software: Lavf57.75.100
Komentář: IT.2017.KORSUB.HDRip.x264-STUTTERSHIT

Video
ID: 1
Formát: AVC
Formát/Info: Advanced Video Codec
Format profile: High@L3.1
Format settings, CABAC: Ano
Format settings, ReFrames: 5 frames
Codec ID: avc1
Codec ID/Info: Advanced Video Coding
Duration: 2h 12mn
Bit rate: 1 100 Kbps
Šířka: 720pixely
Výška: 304pixely
Display aspect ratio: 2.40:1
Original display aspect ratio: 2.40:1
Frame rate mode: Constant
Frame rate: 30.000 fps
Color space: YUV
Chroma subsampling: 4:2:0
Bit depth: 8 bits
Scan type: Progressive
Bits/(Pixel*Frame): 0.168
Stream size: 1.01 GiB (89%)
Titul: IT.2017.KORSUB.HDRip.x264-STUTTERSHIT
Enkódoval: x264 core 148 r2795 aaa9aa8
Nastavení enkoderu: cabac=1 / ref=5 / deblock=1:-1:-1 / analyse=0x3:0x113 / me=umh / subme=9 / psy=1 / psy_rd=1.00:0.15 / mixed_ref=1 / me_range=16 / chroma_me=1 / trellis=2 / 8x8dct=1 / cqm=0 / deadzone=21,11 / fast_pskip=1 / chroma_qp_offset=-3 / threads=24 / lookahead_threads=2 / sliced_threads=0 / nr=0 / decimate=1 / interlaced=0 / bluray_compat=0 / constrained_intra=0 / bframes=3 / b_pyramid=2 / b_adapt=2 / b_bias=0 / direct=3 / weightb=1 / open_gop=0 / weightp=2 / keyint=250 / keyint_min=25 / scenecut=40 / intra_refresh=0 / rc_lookahead=50 / rc=abr / mbtree=1 / bitrate=1100 / ratetol=1.0 / qcomp=0.60 / qpmin=0 / qpmax=69 / qpstep=4 / ip_ratio=1.40 / aq=1:1.00
Color range: Full

Audio
ID: 2
Formát: AAC
Formát/Info: Advanced Audio Codec
Format profile: LC
Codec ID: 40
Duration: 2h 12mn
Bit rate mode: Constant
Bit rate: 128 Kbps
Kanál(y): 2 kanály
Channel positions: Front: L R
Sampling rate: 48.0 KHz
Compression mode: Lossy
Stream size: 121 MiB (10%)
Titul                                    : IT.2017.KORSUB.HDRip.x264-STUTTERSHIT


Download:
Kód:
Ako hosť nemáte oprávnenie prezerať obsah na stiahnutie.
Registujte sa alebo sa  prihláste
Registraciou ziskate zadarmo pristup k odkazom na rapidshare, upnito, hellshare a desiatky dalsim.

To  It (2017)[WebRip][720p].mkv
Formát: Matroska
Format_Version: Version 4 / Version 2
Veľkosť súboru: 3,57 GiB
Trvanie: 2 h 9 min
Celkový dátový tok: 3 954 kb/s
Dátum zakódovania: UTC 2017-12-11 09:19:25
Použitý software: mkvmerge v13.0.0 ('The Juggler'Mrknutie 64bit
Zakódoval: libebml v1.3.4 + libmatroska v1.4.5

Video
ID: 1
Formát: MPEG-4 Visual
Profil formátu: Simple@L5
Format_Settings_BVOP/String: Nie
Format_Settings_QPel/String: Nie
Format_Settings_GMC/String: 0 warppoint
Format_Settings_Matrix/String: Default (H.263)
Označenie kodeku: V_MS/VFW/FOURCC / XVID
Označenie kodeku/: XviD
Trvanie: 2 h 9 min
Dátový tok: 3 760 kb/s
Šírka: 1 280 pixelov
Výška: 720 pixelov
Pomer strán: 16:9
Režim frekvencie snímok: Konštantný
Frekvencia snímok: 25,000 snímok/sek.
ColorSpace: YUV
ChromaSubsampling/String: 4:2:0
BitDepth/String: 8 bitov
ScanType/String: Progresívne
Bitov/(Bod*Snímka): 0.163
StreamSize/String: 3,39 GiB (95%)
Zakódoval: Lavc58.1.100
Default: Áno
Forced: Nie

Audio
ID: 2
Formát: MPEG Audio
Format_Version: Version 1
Profil formátu: Layer 3
Režim: Joint stereo
Označenie kodeku: A_MPEG/L3
Označenie kodeku/: MP3
Trvanie: 2 h 9 min
Režim dátového toku: Konštantný dátový tok
Dátový tok: 192 kb/s
Kanál(y): 2 kanály
Sampling rate: 48,0 kHz
Frekvencia snímok: 41,667 snímok/sek. (1152 SPF)
StreamSize/String: 177 MiB (5%)
Default: Áno
Forced: Nie

Text #1
ID: 3
Formát: UTF-8
Označenie kodeku: S_TEXT/UTF8
Označenie kodeku/Info: UTF-8 Plain Text
Trvanie: 2 h 3 min
Dátový tok: 37 b/s
ElementCount: 976
StreamSize/String: 33,6 kiB (0%)
Jazyk: Česky
Default: Áno
Forced: Nie

Text #2
ID: 4
Formát: UTF-8
Označenie kodeku: S_TEXT/UTF8
Označenie kodeku/Info: UTF-8 Plain Text
Trvanie: 2 h 3 min
Dátový tok: 36 b/s
ElementCount: 976
StreamSize/String: 33,3 kiB (0%)
Jazyk: Slovensky
Default: Nie
Forced: Nie

titulky CZ-SK

Kód:
Ako hosť nemáte oprávnenie prezerať obsah na stiahnutie.
Registujte sa alebo sa  prihláste
Registraciou ziskate zadarmo pristup k odkazom na rapidshare, upnito, hellshare a desiatky dalsim.

Pošli priateľom na FaceBooku
Linka:  
  • Strana:
  • 1

To / It (2017)

V sekcii najdete linky na rapidshare, upnito, hellshare zadarmo

Skočiť na:  
Téma od Na vrch

Stránka vytvorená za 0.041 sekund, 22 otázok.
Cucaj.sk© | Poháňané SMF 1.1.11.
© 2005-2009, Simple Machines LLC. Všetky práva vyhradené.
Upozornenie: žiadny zo zobrazovaných súborov sa nenachádza na tomto serveri.
Autor stránky neberie žiadnu zodpovednosť za príspevky odoslané uživateľmi. Nepoužívajte
tieto stránky k distribúcii alebo k downloadu akýchkoľvek materiálov, ku ktorým nemáte
legálne opravnenie alebo licenciu. Všetky príspevky sem vkladáte na vlastnú zodpovednosť
Autor stránky odmieta akúkoľvek zodpovednosť za prípadne porušovanie zákonov.
Kopírovanie obsahu bez písomného súhlasu autora stránky je trestné.