©  Domov ©  Hľadanie ©  Registrovať ©  Reklama ©  BanList ©  Kontakt ©    

Máme 778581 Používateľov a 563576 Príspevkov
 
22 Sep 2018, 12:42 pm
Reklama : 1 | 0
Stieracia mapa Slovenska XL - Darček na Vianoce srand(); $reklama = rand (5,7); srand();



Hořící keř / Burning Bush (2013)

  • Strana:
  • 1
Hořící keř / Burning Bush (2013)  (Prečítané 10085 krát)
Autor Príspevok

*


Cucaj Rank : n/a
karma +4/-3
Príspevkov : 240
Referal body : 0
SMS Body : 0

Zobraziť profil
#0

| 30 Dec 2013, 12:36 pm

Hořící keř / Burning Bush (2013)

Hořící.keř.2013.480p.TVRip.XviD.CZ

Zvuk : CZ
Titulky : -





Kód:
Ako hosť nemáte oprávnenie prezerať obsah na stiahnutie.
Registujte sa alebo sa  prihláste
Registraciou ziskate zadarmo pristup k odkazom na rapidshare, upnito, hellshare a desiatky dalsim.

Drama / Životopisný
Česko / Polsko, 2013, 206 min

Po seriálu Terapie, který vyvolal příznivé ohlasy u kritiky i u diváků, HBO Česká republika pokračuje v tvorbě vlastních hraných děl. Dalším původním projektem, který vznikne v režii světoznámé Agnieszky Hollandové, je třídílné retro HOŘÍCÍ KEŘ, inspirované skutečnými událostmi i reálnými postavami. Scénář dramatu o alarmujícím činu Jana Palacha, osudech jeho blízkých a počátcích normalizace v posrpnové ČSSR napsal Štěpán Hulík.
 Děj začíná Palachovým sebeupálením v lednu 1969 a líčením rozjitřené atmosféry v tehdejší společnosti. Události se zdramatizují po skandálním nařčení od poslance Viléma Nového, který Palachovo sebeobětování zlehčoval na stranickém mítinku v České Lípě lživým prohlášením o takzvaném studeném ohni.





Kód:
Ako hosť nemáte oprávnenie prezerať obsah na stiahnutie.
Registujte sa alebo sa  prihláste
Registraciou ziskate zadarmo pristup k odkazom na rapidshare, upnito, hellshare a desiatky dalsim.

Rozděleno na tři části každá cca 840MB






Kód:
Ako hosť nemáte oprávnenie prezerať obsah na stiahnutie.
Registujte sa alebo sa  prihláste
Registraciou ziskate zadarmo pristup k odkazom na rapidshare, upnito, hellshare a desiatky dalsim.

Byla změněna doména czshare na sdilej.
Při stahovani ze starších příspěvků změňte link czshare.com na sdilej.cz

Pošli priateľom na FaceBooku
Linka:  

*


Cucaj Rank : n/a
karma +0/-0
Príspevkov : 12
Referal body : 0
SMS Body : 0

Zobraziť profil
#1

| 03 Júl 2018, 13:22 pm

Hořící keř (2013)
Video/Zdroj: DVDRip

Všetky tri časti spojené do jedného filmu.



CSFD / IMDB
Kód:
Ako hosť nemáte oprávnenie prezerať obsah na stiahnutie.
Registujte sa alebo sa  prihláste
Registraciou ziskate zadarmo pristup k odkazom na rapidshare, upnito, hellshare a desiatky dalsim.

INFO
Citácia
Format                                   : AVI
File size                                : 2.08 GiB
Duration                                 : 3h 54mn
Overall bit rate                         : 1 272 Kbps

Video
Format                                   : MPEG-4 Visual
Format settings, Matrix                  : Default (H.263)
Codec ID/Hint                            : XviD
Duration                                 : 3h 54mn
Bit rate                                 : 1 132 Kbps
Width                                    : 712 pixels
Height                                   : 400 pixels
Display aspect ratio                     : 16:9
Frame rate                               : 25.000 fps
Color space                              : YUV
Chroma subsampling                       : 4:2:0
Bit depth                                : 8 bits
Scan type                                : Progressive
Compression mode                         : Lossy
Bits/(Pixel*Frame)                       : 0.159
Stream size                              : 1.85 GiB (89%)

Audio
Format                                   : MPEG Audio
Codec ID/Hint                            : MP3
Duration                                 : 3h 54mn
Bit rate mode                            : Constant
Bit rate                                 : 128 Kbps
Channel(s)                               : 2 channels
Sampling rate                            : 44.1 KHz
Compression mode                         : Lossy
Delay relative to video                  : 40ms
Stream size                              : 214 MiB (10%)
Alignment                                : Aligned on interleaves
Interleave, duration                     : 26 ms (0.65 video frame)
Interleave, preload duration             : 522 ms

Fastshare
Kód:
Ako hosť nemáte oprávnenie prezerať obsah na stiahnutie.
Registujte sa alebo sa  prihláste
Registraciou ziskate zadarmo pristup k odkazom na rapidshare, upnito, hellshare a desiatky dalsim.
Posledná zmena: 10 Sep 2018, 11:02 am od Sonty1

Pošli priateľom na FaceBooku
Linka:  
  • Strana:
  • 1

Hořící keř / Burning Bush (2013)

V sekcii najdete linky na rapidshare, upnito, hellshare zadarmo

Skočiť na:  
Téma od Na vrch

Stránka vytvorená za 0.097 sekund, 22 otázok.
Cucaj.sk© | Poháňané SMF 1.1.11.
© 2005-2009, Simple Machines LLC. Všetky práva vyhradené.
Upozornenie: žiadny zo zobrazovaných súborov sa nenachádza na tomto serveri.
Autor stránky neberie žiadnu zodpovednosť za príspevky odoslané uživateľmi. Nepoužívajte
tieto stránky k distribúcii alebo k downloadu akýchkoľvek materiálov, ku ktorým nemáte
legálne opravnenie alebo licenciu. Všetky príspevky sem vkladáte na vlastnú zodpovednosť
Autor stránky odmieta akúkoľvek zodpovednosť za prípadne porušovanie zákonov.
Kopírovanie obsahu bez písomného súhlasu autora stránky je trestné.