©  Domov ©  Hľadanie ©  Registrovať ©  Reklama ©  BanList ©  Kontakt ©    

Máme 778387 Používateľov a 562379 Príspevkov
 
22 Júl 2018, 09:18 am
Reklama : 1 | 0
Stieracia mapa Slovenska XL - Darček na Vianoce srand(); $reklama = rand (5,7); srand();



Byl jednou jeden polda (1995)

  • Strana:
  • 1
Byl jednou jeden polda (1995)  (Prečítané 692 krát)
Autor Príspevok

*


Cucaj Rank : 310
karma +7/-8
Príspevkov : 3318
Referal body : 0
SMS Body : 0

Zobraziť profil
#0

| 27 Jan 2013, 12:19 pm

Byl jednou jeden polda (1995) DVDRip XviD CZdabing




Kód:
Ako hosť nemáte oprávnenie prezerať obsah na stiahnutie.
Registujte sa alebo sa  prihláste
Registraciou ziskate zadarmo pristup k odkazom na rapidshare, upnito, hellshare a desiatky dalsim.

Format            : AVI at 1 177 Kbps
Length            : 698 MiB for 1h 22mn 51s 240ms

Video #0          : MPEG-4 Visual at 1 040 Kbps
Aspect            : 640 x 480 (1.333) at 25.000 fps

Audio #0          : MPEG Audio at 128 Kbps
Infos             : CZ 2 channels, 48.0 KHz


Kód:
Ako hosť nemáte oprávnenie prezerať obsah na stiahnutie.
Registujte sa alebo sa  prihláste
Registraciou ziskate zadarmo pristup k odkazom na rapidshare, upnito, hellshare a desiatky dalsim.
V případě smazání linku opravuji - mrkni do složky !!!
Kód:
Ako hosť nemáte oprávnenie prezerať obsah na stiahnutie.
Registujte sa alebo sa  prihláste
Registraciou ziskate zadarmo pristup k odkazom na rapidshare, upnito, hellshare a desiatky dalsim.

Pošli priateľom na FaceBooku
Linka:  

*


Cucaj Rank : n/a
karma +0/-0
Príspevkov : 0
Referal body : 0
SMS Body : 0

Zobraziť profil
#1

| 04 Júl 2018, 10:28 am

Byl jednou jeden polda (1995)
Video/Zdroj: DVDRip



Kód:
Ako hosť nemáte oprávnenie prezerať obsah na stiahnutie.
Registujte sa alebo sa  prihláste
Registraciou ziskate zadarmo pristup k odkazom na rapidshare, upnito, hellshare a desiatky dalsim.

Citácia
Format                                   : AVI
File size                                : 698 MiB
Duration                                 : 1h 22mn
Overall bit rate                         : 1 177 Kbps

Video
Format                                   : MPEG-4 Visual
Codec ID                                 : XVID
Duration                                 : 1h 22mn
Bit rate                                 : 1 040 Kbps
Width                                    : 720 pixels
Height                                   : 406 pixels
Display aspect ratio                     : 16:9
Frame rate                               : 25.000 fps
Color space                              : YUV
Chroma subsampling                       : 4:2:0
Bit depth                                : 8 bits
Scan type                                : Progressive
Compression mode                         : Lossy
Bits/(Pixel*Frame)                       : 0.142
Stream size                              : 616 MiB (88%)

Audio
Format                                   : MPEG Audio
Codec ID/Hint                            : MP3
Duration                                 : 1h 22mn
Bit rate mode                            : Constant
Bit rate                                 : 128 Kbps
Channel(s)                               : 2 channels
Sampling rate                            : 48.0 KHz
Compression mode                         : Lossy
Stream size                              : 75.7 MiB (11%)
Alignment                                : Aligned on interleaves
Interleave, duration                     : 40 ms (1.00 video frame)
Interleave, preload duration             : 504 ms

Fastshare
Kód:
Ako hosť nemáte oprávnenie prezerať obsah na stiahnutie.
Registujte sa alebo sa  prihláste
Registraciou ziskate zadarmo pristup k odkazom na rapidshare, upnito, hellshare a desiatky dalsim.

Pošli priateľom na FaceBooku
Linka:  
  • Strana:
  • 1

Byl jednou jeden polda (1995)

V sekcii najdete linky na rapidshare, upnito, hellshare zadarmo

Skočiť na:  
Téma od Na vrch

Stránka vytvorená za 0.171 sekund, 22 otázok.
Cucaj.sk© | Poháňané SMF 1.1.11.
© 2005-2009, Simple Machines LLC. Všetky práva vyhradené.
Upozornenie: žiadny zo zobrazovaných súborov sa nenachádza na tomto serveri.
Autor stránky neberie žiadnu zodpovednosť za príspevky odoslané uživateľmi. Nepoužívajte
tieto stránky k distribúcii alebo k downloadu akýchkoľvek materiálov, ku ktorým nemáte
legálne opravnenie alebo licenciu. Všetky príspevky sem vkladáte na vlastnú zodpovednosť
Autor stránky odmieta akúkoľvek zodpovednosť za prípadne porušovanie zákonov.
Kopírovanie obsahu bez písomného súhlasu autora stránky je trestné.