©  Domov ©  Hľadanie ©  Registrovať ©  Reklama ©  BanList ©  Kontakt ©    

Máme 778582 Používateľov a 563605 Príspevkov
 
24 Sep 2018, 06:29 am
Reklama : 1 | 0
Stieracia mapa Slovenska XL - Darček na Vianoce srand(); $reklama = rand (5,7); srand();



Mistr Shaolinu/Shaolin Abbot/Shao Lin ying xiong bang(1979)

  • Strana:
  • 1
Mistr Shaolinu/Shaolin Abbot/Shao Lin ying xiong bang(1979)  (Prečítané 1805 krát)
Autor Príspevok

*


Cucaj Rank : 326
karma +1/-2
Príspevkov : 173
Referal body : 0
SMS Body : 0

Zobraziť profil
#0

| 15 Okt 2011, 12:33 pm

Mistr Shaolinu/Shaolin Abbot/Shao Lin ying xiong bang(1979)

Akční / Dobrodružný
Hong Kong, 1979, 84 min
Hrají:Norman Chu, David Chiang, Lily Li

Info: Ako hosť nemáte oprávnenie prezerať obsah na stiahnutie.
Registrujte sa alebo sa prihláste



Kvalita videa:
Format                           : AVI
Format/Info                      : Audio Video Interleave
File size                        : 651 MiB
Duration                         : 1h 15mn
Overall bit rate                 : 1 211 Kbps
Writing library                  : MPlayer

Video
ID                               : 0
Format                           : MPEG-4 Visual
Format profile                   : Simple@L1
Format settings, BVOP            : No
Format settings, QPel            : No
Format settings, GMC             : No warppoints
Format settings, Matrix          : Default (H.263)
Codec ID                         : DX50
Codec ID/Hint                    : DivX 5
Duration                         : 1h 15mn
Bit rate                         : 1 038 Kbps
Width                            : 640 pixels
Height                           : 480 pixels
Display aspect ratio             : 4:3
Frame rate                       : 25.000 fps
Color space                      : YUV
Chroma subsampling               : 4:2:0
Bit depth                        : 8 bits
Scan type                        : Interlaced
Scan order                       : Top Field First
Compression mode                 : Lossy
Bits/(Pixel*Frame)               : 0.135
Stream size                      : 558 MiB (86%)
Writing library                  : Lavc51.44.0

Audio
ID                               : 1
Format                           : MPEG Audio
Format version                   : Version 1
Format profile                   : Layer 3
Mode                             : Joint stereo
Mode extension                   : MS Stereo
Codec ID                         : 55
Codec ID/Hint                    : MP3
Duration                         : 1h 15mn
Bit rate mode                    : Constant
Bit rate                         : 160 Kbps
Channel(s)                       : 2 channels
Sampling rate                    : 44.1 KHz
Compression mode                 : Lossy
Stream size                      : 86.0 MiB (13%)
Alignment                        : Aligned on interleaves
Interleave, duration             : 26 ms (0.65 video frame)
Interleave, preload duration     : 809 ms

Jazyk: cz

Obsah:
Čest, msta, patriotiznus. Odpor vůči utlačovatelům Říše středu. Hněvem naplněny jsou srdce Mingů. I mladý shaolinský kněz Chi Shan je Ming. Na měsíce opustí klášter, aby poznal tajemstvý výroby střelného prachu a naučil se novou techniku Shaolinu. Vrátí se však příliš pozdě. Klášter je zničen drzostí nepřítele. V hněvu se zapřísahá, že se bude mstít. Obklopuje ho nebezpečí a boj, a v patách jsou mu drábi Manchů.

DOWNLOAD HELLSHARE
Kód:
Ako hosť nemáte oprávnenie prezerať obsah na stiahnutie.
Registujte sa alebo sa  prihláste
Registraciou ziskate zadarmo pristup k odkazom na rapidshare, upnito, hellshare a desiatky dalsim.
Posledná zmena: 30 Aug 2012, 10:18 am od sangokoko

Pošli priateľom na FaceBooku
Linka:  

*


Cucaj Rank : n/a
karma +0/-4
Príspevkov : 457
Referal body : 0
SMS Body : 0

Zobraziť profil


#1

| 30 Máj 2015, 23:47 pm

Shao Lin ying xiong bang (1979-UPDVD-x264-AC3-DualDUB) C75

Žánr : Akční / Dobrodružný
Země : Hong Kong
Velikost : 2.1 Gb
Formát : x264 / MKV
Audio #1 : CZ | AC3 | CBR 192 Kbps | 1.0
Audio #2 : CH | AC3 | CBR 192 Kbps | 1.0
Video : AVC | 1024x448 | 29.970 | CRF 15.0
Titulky : CZ-F, CZ
Kapitoly : Ne
Minutáž : 1:19:11
Checksum : MD5
Záznam pro opravu dat : 3%
Informace : DVD rip + šíleně těžké synchro, v pozadí jde slyšet němčina - restaurováno; pro nedabované scény jsem přiložil forced titule

Kód:
Ako hosť nemáte oprávnenie prezerať obsah na stiahnutie.
Registujte sa alebo sa  prihláste
Registraciou ziskate zadarmo pristup k odkazom na rapidshare, upnito, hellshare a desiatky dalsim.

Media Info
Kód:
Ako hosť nemáte oprávnenie prezerať obsah na stiahnutie.
Registujte sa alebo sa  prihláste
Registraciou ziskate zadarmo pristup k odkazom na rapidshare, upnito, hellshare a desiatky dalsim.

Stažení a heslo
Kód:
Ako hosť nemáte oprávnenie prezerať obsah na stiahnutie.
Registujte sa alebo sa  prihláste
Registraciou ziskate zadarmo pristup k odkazom na rapidshare, upnito, hellshare a desiatky dalsim.

Komprimovanou zálohu si nechávám max 2 dny. Vadné linky mi prosím nahlaste v PM, díky!
RARy obsahují 3% záznam pro opravu dat. Rlsy v oranžové + VHS nahrávky jsou vlastní.

Pošli priateľom na FaceBooku
Linka:  

*


Cucaj Rank : n/a
karma +0/-0
Príspevkov : 12
Referal body : 0
SMS Body : 0

Zobraziť profil
#2

| 03 Júl 2018, 10:15 am

Mistr Shaolinu / Shao Lin ying xiong bang (1979)
Video\Zdroj: VHSRip
Audio: CZ

Kód:
Ako hosť nemáte oprávnenie prezerať obsah na stiahnutie.
Registujte sa alebo sa  prihláste
Registraciou ziskate zadarmo pristup k odkazom na rapidshare, upnito, hellshare a desiatky dalsim.



Citácia
Format                                   : AVI
File size                                : 721 MiB
Duration                                 : 1h 15mn
Overall bit rate                         : 1 340 Kbps

Video
Format                                   : xvid
Duration                                 : 1h 15mn
Bit rate                                 : 1 200 Kbps
Width                                    : 720 pixels
Height                                   : 350 pixels
Display aspect ratio                     : 2.057
Frame rate                               : 25.000 fps
Bits/(Pixel*Frame)                       : 0.191
Stream size                              : 645 MiB (90%)

Audio
Format                                   : MPEG Audio
Codec ID/Hint                            : MP3
Duration                                 : 1h 15mn
Bit rate mode                            : Constant
Bit rate                                 : 128 Kbps
Channel(s)                               : 2 channels
Sampling rate                            : 44.1 KHz
Compression mode                         : Lossy
Stream size                              : 68.8 MiB (10%)
Alignment                                : Aligned on interleaves
Interleave, duration                     : 26 ms (0.65 video frame)
Interleave, preload duration             : 26 ms

Fastshare
Kód:
Ako hosť nemáte oprávnenie prezerať obsah na stiahnutie.
Registujte sa alebo sa  prihláste
Registraciou ziskate zadarmo pristup k odkazom na rapidshare, upnito, hellshare a desiatky dalsim.

Pošli priateľom na FaceBooku
Linka:  
  • Strana:
  • 1

Mistr Shaolinu/Shaolin Abbot/Shao Lin ying xiong bang(1979)

V sekcii najdete linky na rapidshare, upnito, hellshare zadarmo

Skočiť na:  
Téma od Na vrch

Stránka vytvorená za 0.13 sekund, 23 otázok.
Cucaj.sk© | Poháňané SMF 1.1.11.
© 2005-2009, Simple Machines LLC. Všetky práva vyhradené.
Upozornenie: žiadny zo zobrazovaných súborov sa nenachádza na tomto serveri.
Autor stránky neberie žiadnu zodpovednosť za príspevky odoslané uživateľmi. Nepoužívajte
tieto stránky k distribúcii alebo k downloadu akýchkoľvek materiálov, ku ktorým nemáte
legálne opravnenie alebo licenciu. Všetky príspevky sem vkladáte na vlastnú zodpovednosť
Autor stránky odmieta akúkoľvek zodpovednosť za prípadne porušovanie zákonov.
Kopírovanie obsahu bez písomného súhlasu autora stránky je trestné.